Home / Amazon Adventure (2017) 720p HDRip x264 [Multi Line Audios][Hindi+Tamil+Telugu+Benga]

Amazon Adventure (2017) 720p HDRip x264 [Multi Line Audios][Hindi+Tamil+Telugu+Benga]

General
Format : Matroska
Format version : Version 4 / Version 2
File size : 1.64 GiB
Duration : 2 h 18 min
Overall bit rate mode : Variable
Overall bit rate : 1 695 kb/s
Encoded date : UTC 2018-04-15 20:17:20
Writing application : mkvmerge v7.8.0 ('River Man') 64bit built on Mar 27 2015 16:31:37
Writing library : libebml v1.3.1 + libmatroska v1.4.2

Video
ID : 1
Format : AVC
Format/Info : Advanced Video Codec
Format profile : [email protected]
Format settings, CABAC : Yes
Format settings, RefFrames : 4 frames
Codec ID : V_MPEG4/ISO/AVC
Duration : 2 h 18 min
Bit rate : 1 261 kb/s
Width : 1 280 pixels
Height : 544 pixels
Display aspect ratio : 2.35:1
Frame rate mode : Constant
Frame rate : 30.000 FPS
Color space : YUV
Chroma subsampling : 4:2:0
Bit depth : 8 bits
Scan type : Progressive
Bits/(Pixel*Frame) : 0.060
Stream size : 1.22 GiB (74%)
Writing library : x264 core 148 r2744 b97ae06
Encoding settings : cabac=1 / ref=3 / deblock=1:0:0 / analyse=0x3:0x113 / me=hex / subme=7 / psy=1 / psy_rd=1.00:0.00 / mixed_ref=1 / me_range=16 / chroma_me=1 / trellis=1 / 8x8dct=1 / cqm=0 / deadzone=21,11 / fast_pskip=1 / chroma_qp_offset=-2 / threads=12 / lookahead_threads=2 / sliced_threads=0 / nr=0 / decimate=1 / interlaced=0 / bluray_compat=0 / constrained_intra=0 / bframes=3 / b_pyramid=2 / b_adapt=1 / b_bias=0 / direct=1 / weightb=1 / open_gop=0 / weightp=2 / keyint=300 / keyint_min=30 / scenecut=40 / intra_refresh=0 / rc_lookahead=40 / rc=2pass / mbtree=1 / bitrate=1261 / ratetol=1.0 / qcomp=0.60 / qpmin=0 / qpmax=69 / qpstep=4 / cplxblur=20.0 / qblur=0.5 / ip_ratio=1.40 / aq=1:1.00
Language : English
Default : Yes
Forced : No

Audio #1
ID : 2
Format : MPEG Audio
Format version : Version 1
Format profile : Layer 3
Mode : Joint stereo
Codec ID : A_MPEG/L3
Codec ID/Hint : MP3
Duration : 2 h 18 min
Bit rate mode : Constant
Bit rate : 96.0 kb/s
Channel(s) : 2 channels
Sampling rate : 44.1 kHz
Frame rate : 38.281 FPS (1152 SPF)
Compression mode : Lossy
Stream size : 94.7 MiB (6%)
Language : Tamil
Default : Yes
Forced : No

Audio #2
ID : 3
Format : MPEG Audio
Format version : Version 1
Format profile : Layer 3
Mode : Joint stereo
Mode extension : MS Stereo
Codec ID : A_MPEG/L3
Codec ID/Hint : MP3
Duration : 2 h 18 min
Bit rate mode : Variable
Bit rate : 128 kb/s
Channel(s) : 2 channels
Sampling rate : 48.0 kHz
Frame rate : 41.667 FPS (1152 SPF)
Compression mode : Lossy
Stream size : 130 MiB (8%)
Writing library : LAME3.99r
Encoding settings : -m j -V 4 -q 3 -lowpass 17 --abr 128
Language : Telugu
Default : No
Forced : No

Audio #3
ID : 4
Format : MPEG Audio
Format version : Version 1
Format profile : Layer 3
Mode : Joint stereo
Codec ID : A_MPEG/L3
Codec ID/Hint : MP3
Duration : 2 h 18 min
Bit rate mode : Variable
Bit rate : 107 kb/s
Nominal bit rate : 128 kb/s
Channel(s) : 2 channels
Sampling rate : 48.0 kHz
Frame rate : 41.667 FPS (1152 SPF)
Compression mode : Lossy
Stream size : 106 MiB (6%)
Writing library : LAME3.99r
Encoding settings : -m j -V 4 -q 3 -lowpass 17 --abr 128
Language : Hindi
Default : No
Forced : No

Audio #4
ID : 5
Format : MPEG Audio
Format version : Version 1
Format profile : Layer 3
Mode : Joint stereo
Mode extension : MS Stereo
Codec ID : A_MPEG/L3
Codec ID/Hint : MP3
Duration : 2 h 18 min
Bit rate mode : Constant
Bit rate : 96.0 kb/s
Channel(s) : 2 channels
Sampling rate : 44.1 kHz
Frame rate : 38.281 FPS (1152 SPF)
Compression mode : Lossy
Stream size : 94.9 MiB (6%)
Writing library : LAMEªÿÿÿÿùAd$FOl¿@E
Language : Bengali
Default : No
Forced : No

SINGLE DIRECT FAST LINKS

http://www.heroupload.us/74d4c12698ba877b/Amazon.Adventure.2017.720p.HDRip.Line.Audios.Tamil+Telugu+Hindi+Bengali.x264-MTR.mkv
http://filefloater.com/SHm/Amazon.Adventure.2017.720p.HDRip.Line.Audios.Tamil+Telugu+Hindi+Bengali.x264-MTR.mkv

About wroser

Check Also

MPlayer – Media Player All Format v1.0.19 [Premium]

MPlayer - Media Player All Format v1.0.19 [Premium] Requirements: Android 2.3 and up | Size: 21,1 MB

Leave a Reply

Your email address will not be published. Required fields are marked *

Download or Stream Amazon Adventure (2017) 720p HDRip x264 [Multi Line Audios][Hindi+Tamil+Telugu+Benga] from torrent, mega, uptobox, 1fichier, zippyshare, vidzi, openload, uploaded, estream, google drive, watchers, uploadrocket, eztv, rarbg, subtitles, direct link, free link, vodlocker, vidbull, flashx, youwatch, thevideo, YTS, the pirate bay, ExtraTorrent, KAT, watch free, clicknupload, dailyuploads, depositfiles, filefactory, nitroflare, rapidgator, download free, keep2share, last episode, full movie, hdtv, rarbg torrents, 720p, 1080p, BluRay, High quality, codex.
%d bloggers like this: